<?xml version="1.0" standalone="no"?>
<!DOCTYPE svg PUBLIC "-//W3C//DTD SVG 1.1//EN" "http://www.w3.org/Graphics/SVG/1.1/DTD/svg11.dtd" >
<svg xmlns="http://www.w3.org/2000/svg">
<metadata>Generated by IcoMoon</metadata>
<defs>
<font id="deviantart-symbols" horiz-adv-x="512">
<font-face units-per-em="512" ascent="480" descent="-32" />
<missing-glyph horiz-adv-x="512" />
<glyph unicode="&#x20;" horiz-adv-x="256" d="" />
<glyph unicode="&#x24;" glyph-name="admin" d="M414.906 386.972v93.108h-93.113l-9.293-9.373-43.934-83.731-13.814-9.316h-156.805v-127.866h86.203l7.681-9.288-93.885-179.398v-93.108h93.11l9.293 9.368 43.934 83.731 13.814 9.32h156.806v127.868h-86.206l-7.671 9.349z" />
<glyph unicode="&#x2a;" glyph-name="premium-star" d="M384.418 157.103l30.214-173.657-158.207 81.99-158.207-81.99 30.214 173.658-127.995 122.981 176.884 25.337 79.103 157.998 79.103-157.998 176.884-25.337z" />
<glyph unicode="&#x3c;" glyph-name="leftarrow" d="M141.391 222.194l256.279 255.375v-510.749l-128.139 127.686z" />
<glyph unicode="&#x3e;" glyph-name="rightarrow" d="M370.609 222.194l-256.279 255.375v-510.749l128.139 127.686z" />
<glyph unicode="&#x40;" glyph-name="external-1d" d="M426.644 10.692h-341.315v341.315h126.925l-41.597 42.664h-127.993v-426.642h426.644v127.993l-42.664 43.319zM255.697 437.618l85.221-84.362-192.071-192.010 87.604-87.606 192.082 192 83.606-83.851 0.072 255.901z" />
<glyph unicode="&#x42;" glyph-name="beta-star" d="M256.425 368.118l50.95-101.765 112.411-16.101-81.291-78.108 19.352-111.216-101.421 52.558-101.421-52.56 19.352 111.218-81.29 78.108 112.41 16.101 50.95 101.766zM256.426 463.418l-79.104-157.999-176.882-25.336 127.993-122.983-30.213-173.656 158.207 81.99 158.207-81.99-30.214 173.656 127.995 122.983-176.882 25.336-79.104 157.998z" />
<glyph unicode="&#x43;" glyph-name="beta2" horiz-adv-x="896" d="M153.071 212.289h-35.264v-38.063h35.264c14.684 0 22.844 7.446 22.844 18.868 0 12.075-8.159 19.195-22.844 19.195zM171.345 270.274c0 12.402-8.159 18.137-23.498 18.137h-30.043v-36.6h30.043c15.339 0 23.498 6.061 23.498 18.463zM655.983 212.289h41.119l-20.56 56.458zM16.741 381.598c-5.633 0-10.194-4.575-10.194-10.214v-284.292c0-5.644 4.559-10.948 10.194-10.948h761.314l22.216 15.012 84.632 157.894v132.918l-868.163-0.368zM159.921 130.308h-91.891v200.558h85.692c41.774 0 66.903-18.435 66.903-54.332 0-21.54-12.076-37.121-26.761-42.344 18.929-6.199 32.635-25.017 32.635-47.537-0.001-36.224-24.804-56.348-66.578-56.348zM393.022 285.485h-92.228v-30.742h84.907v-43.919h-84.907v-35.134h92.228v-45.382h-143.463v200.558h143.463v-45.382zM524.777 130.308h-52.702v155.177h-61.485v45.382h175.673v-45.382h-61.485v-155.177zM727.129 130.308l-14.359 39.525h-72.775l-14.032-39.525h-51.891l76.368 200.558h53.523l76.368-200.558h-53.196z" />
<glyph unicode="&#x46;" glyph-name="uni46" d="M495.619 279.034c-1.478 4.543-5.413 7.854-10.154 8.543l-150.769 21.87-67.418 136.295c-2.118 4.286-6.49 6.997-11.279 6.997s-9.161-2.711-11.279-6.997l-67.427-136.295-150.762-21.87c-4.738-0.69-8.674-4.001-10.154-8.543-1.479-4.544-0.246-9.531 3.185-12.863l109.091-106.098-25.747-149.799c-0.809-4.707 1.132-9.467 5.005-12.274 2.192-1.588 4.788-2.397 7.395-2.397 2.002 0 4.012 0.476 5.853 1.442l134.84 70.729 134.85-70.729c1.841-0.965 3.851-1.442 5.853-1.442 2.606 0 5.203 0.809 7.396 2.397 3.874 2.808 5.815 7.568 5.003 12.276l-25.757 149.8 109.091 106.094c3.43 3.333 4.663 8.32 3.183 12.863z" />
<glyph unicode="&#x47;" glyph-name="core" horiz-adv-x="896" d="M547.178 292.805h-37.303v-55.629h37.303c20.429 0 30.964 11.376 30.964 27.655 0.001 16.601-10.534 27.975-30.964 27.975zM13.382 381.411c-5.54 0-10.027-4.498-10.027-10.048v-279.639c0-5.548 4.487-9.728 10.027-9.728h763.231l21.852 14.243 83.247 154.791v130.738l-868.331-0.363zM156.45 164.349c22.665 0 34.797 12.805 41.5 30.372h40.543c-7.344-39.525-35.755-66.813-82.041-66.813-52.354 0-91.299 41.087-91.299 101.101s38.947 101.101 91.299 101.101c46.287 0 74.701-27.060 82.041-66.587h-40.543c-6.702 17.567-18.834 30.196-41.5 30.196-31.284 0-49.799-27.337-49.799-64.688 0-37.029 18.514-64.686 49.799-64.686zM354.101 131.572c-54.295 0-98.309 44.016-98.309 98.309 0 54.296 44.016 98.314 98.309 98.314 54.296 0 98.314-44.016 98.314-98.314 0-54.293-44.015-98.309-98.314-98.309zM579.422 131.772l-48.524 71.734h-21.024v-71.734h-40.99v194.702h80.851c41.18 0 68.634-21.709 68.634-61.933 0-31.284-17.239-50.582-44.691-57.286l51.713-75.482h-45.97zM782.165 291.341h-93.692v-42.454h84.907v-35.134h-84.907v-46.846h93.692v-35.134h-133.218v194.702h133.218v-35.134zM359.019 301.719c-0.649 1.315-1.985 2.147-3.451 2.147s-2.803-0.831-3.45-2.147l-20.629-41.795-46.127-6.707c-1.45-0.209-2.655-1.225-3.108-2.619s-0.074-2.923 0.976-3.943l33.375-32.536-7.877-45.933c-0.247-1.445 0.346-2.904 1.53-3.769 0.673-0.481 1.466-0.732 2.265-0.732 0.614 0 1.225 0.144 1.793 0.444l41.252 21.687 41.26-21.687c0.563-0.298 1.178-0.444 1.793-0.444 0.796 0 1.591 0.252 2.264 0.732 1.186 0.865 1.779 2.322 1.533 3.769l-7.88 45.933 33.375 32.536c1.051 1.022 1.428 2.554 0.976 3.943s-1.654 2.411-3.109 2.619l-46.128 6.707-20.629 41.795z" />
<glyph unicode="&#x5e;" glyph-name="volunteer" d="M361.983 414.822c-44.732 0-83.96-23.333-105.998-58.693-22.036 35.358-61.266 58.693-105.996 58.693-68.934 0-124.816-55.882-124.816-124.816 0-144.402 154.516-183.178 230.812-258.080 76.811 76.041 230.812 112.911 230.812 258.080 0.002 68.933-55.88 124.816-124.815 124.816z" />
<glyph unicode="&#x60;" glyph-name="senior" d="M256 275.2c84.831 0 153.6-68.769 153.6-153.6s-68.769-153.6-153.6-153.6c-84.831 0-153.6 68.769-153.6 153.6s68.769 153.6 153.6 153.6zM256 224l-30.095-60.978-67.293-9.779 48.694-47.465-11.495-67.022 60.189 31.644 60.189-31.644-11.495 67.022 48.694 47.465-67.293 9.779-30.095 60.978zM512 480v-51.2l-76.8-102.4 76.8 52.887v-78.488l-51.2-76.8 51.2 25.6v-45.268l-39.916-66.649-36.929-20.169 0.046 4.087c0 90.269-66.744 164.948-153.574 177.381l-0.026 56.558 230.4 124.461zM0 480l230.4-124.461v-56.554c-86.843-12.422-153.6-87.108-153.6-177.385l0.077-4.070-36.96 20.152-39.916 66.649v45.269l51.2-25.6-51.2 82.731v72.556l76.8-52.888-76.8 102.4v51.2z" />
<glyph unicode="&#x66;" glyph-name="friends" d="M329.979 53.939c-0.67 0-1.337 0.003-2.008 0.003-11.548 0.002-28.807 0.003 2.008-0.003zM510.567 83.116c-2.308 18.988-10.851 34.324-28.425 42.495-20.423 9.507-41.2 18.229-61.963 26.943-43.886 18.426-60.579 23.771-33.69 85.034 13.572 30.924 17.817 63.108 13.947 96.303-4.567 39.149-30.494 60.625-70.801 60.144-39.934-0.467-65.267-22.961-68.798-62.591-2.862-32.12 0.536-63.273 13.764-93.442 15.494-35.347 17.449-53.289 0.581-67.564v0c-2.957-2.506-6.503-4.897-10.647-7.248-0.144-0.083-0.286-0.163-0.431-0.245-1.334-0.749-2.724-1.496-4.182-2.24-0.024-0.013-0.046-0.024-0.071-0.036-1.536-0.781-3.141-1.563-4.816-2.344-0.078-0.038-0.16-0.074-0.237-0.108-1.475-0.686-3.014-1.374-4.597-2.062-0.436-0.191-0.881-0.382-1.323-0.572-1.31-0.56-2.661-1.125-4.044-1.692-0.488-0.202-0.967-0.401-1.465-0.601-1.827-0.738-3.698-1.481-5.65-2.234-19.343-6.972-38.29-14.969-56.841-23.978-1.008-0.531-2.002-1.086-2.983-1.656-0.298-0.171-0.586-0.354-0.88-0.529-0.684-0.409-1.364-0.821-2.030-1.247-0.327-0.211-0.645-0.429-0.968-0.644-0.624-0.413-1.243-0.831-1.849-1.263-0.32-0.228-0.632-0.462-0.946-0.693-0.599-0.443-1.19-0.891-1.767-1.349-0.296-0.235-0.587-0.476-0.877-0.714-0.587-0.483-1.161-0.978-1.726-1.482-0.26-0.232-0.518-0.465-0.772-0.702-0.589-0.545-1.161-1.105-1.721-1.676-0.208-0.212-0.42-0.42-0.625-0.634-0.613-0.645-1.204-1.31-1.78-1.986-0.132-0.156-0.272-0.305-0.402-0.464-5.34-6.428-8.945-14.221-9.786-23.717-2.81-31.774 2.773-35.050 28.323-34.617 49.286 0.82 98.591 0.261 147.885 0.236 6.178 0 10.724-0.003 5.394-0.003 25.329 0 50.649-0.014 75.976 0 25.469 0 50.952-0.338 76.413 0.118 22.731 0.42 27.57 6.28 24.81 29.058zM171.179 146.921l0.323 0.158c19.103 9.278 38.858 17.612 58.717 24.782 8.597 3.322 15.599 6.399 21.035 9.226-8.54 3.678-17.113 7.277-25.682 10.875-36.721 15.419-50.693 19.892-28.191 71.158 11.36 25.877 14.909 52.809 11.672 80.587-3.821 32.76-25.518 50.731-59.245 50.329-33.421-0.392-54.617-19.214-57.571-52.375-2.395-26.877 0.447-52.947 11.517-78.194 19.142-43.663 13.641-55.596-30.862-72.759-16.186-5.834-32.041-12.524-47.564-20.062-12.732-6.718-22.982-16.85-24.361-32.433-2.353-26.591 2.32-29.33 23.699-28.968 36.678 0.609 73.368 0.32 110.053 0.231 5.292 12.875 15.849 26.573 36.141 37.276l0.32 0.169z" />
<glyph unicode="&#x67;" glyph-name="group" d="M255.987 419.558l-213.32-142.214v-248.872h142.214v177.765h142.212v-177.765h142.214v248.872z" />
<glyph unicode="&#x68;" glyph-name="hell" d="M294.4 437.334l25.6-81.555 128-128.611v-146.101l-54.699-32.086-38.356 54.255 26.37 79.761-78.3-24.408-66.452 53.535 1.274-85.324-67.44-46.675 79.088-28.325 12.358-41.134h-77.846l-120 62.067v135.756l62.172 70.274 65.828-33.429v106.667z" />
<glyph unicode="&#x6d;" glyph-name="uni6D" d="M15.761 319.788v-233.581c0-2.289 0.225-4.519 0.563-6.708l109.68 113.439-110.243 126.85zM212.638 175.153h86.73c9.737 0 25.452 7.491 32.341 15.415l161.891 186.296c-5.806 16.017-20.694 27.439-38.197 27.439h-398.81c-17.503 0-32.39-11.423-38.199-27.44l161.903-186.296c6.888-7.924 22.604-15.415 32.341-15.415zM357.807 160.497c-13.8-15.885-38.927-27.863-58.44-27.863h-86.729c-19.516 0-44.642 11.979-58.443 27.863l-5.030 5.785-112.849-116.722c5.981-3.55 12.889-5.613 20.276-5.613h398.81c7.389 0 14.298 2.063 20.277 5.613l-112.851 116.716-5.022-5.779zM385.995 192.93l109.675-113.433c0.34 2.19 0.565 4.421 0.565 6.709v233.578l-110.24-126.856z" />
<glyph unicode="&#x6f;" glyph-name="all" d="M0 480h213.321v-213.322h-213.321v213.322zM298.65 480h213.322v-213.322h-213.322v213.322zM0 181.35h213.321v-213.322h-213.321v213.322zM298.65 181.35h213.322v-213.322h-213.322v213.322z" />
<glyph unicode="&#x76;" glyph-name="downarrow" d="M257.020 159.282l-144.208 144.718h288.415l-72.103-72.36z" />
<glyph unicode="&#x192;" glyph-name="premium" d="M256 480c-141.388 0-256-114.611-256-256s114.612-256 256-256c141.389 0 256 114.611 256 256s-114.611 256-256 256zM358.451 76.57l-97.792 51.43-97.792-51.43 18.662 108.928-79.129 77.133 109.338 15.898 48.921 99.072 48.896-99.098 109.338-15.897-79.104-77.133 18.663-108.903z" />
<glyph unicode="&#x222b;" glyph-name="beta" d="M256 480c-141.388 0-256-114.611-256-256s114.612-256 256-256c141.389 0 256 114.611 256 256s-114.611 256-256 256zM256-6.4c-127.053 0-230.4 103.347-230.4 230.4 0 127.027 103.347 230.4 230.4 230.4s230.4-103.373 230.4-230.4c0-127.053-103.347-230.4-230.4-230.4zM309.555 278.502l-48.896 99.098-48.922-99.098-109.338-15.872 79.13-77.133-18.688-108.928 97.817 51.43 97.792-51.43-18.663 108.928 79.104 77.133z" />
<glyph unicode="&#xe600;" glyph-name="mag" d="M192.445 459.094c94.252 0 170.657-76.406 170.657-170.657 0-31.096-8.321-60.247-22.853-85.356l134.728-134.729c8.296-8.296 8.296-21.873 0-30.168l-32.639-32.64c-8.296-8.296-21.873-8.296-30.168 0l-134.822 134.822c-25.006-14.368-53.995-22.587-84.903-22.587-94.251 0-170.657 76.406-170.657 170.658s76.406 170.657 170.657 170.657zM111.996 207.988c21.489-21.489 50.060-33.324 80.449-33.324 30.39 0 58.959 11.834 80.449 33.324s33.324 50.059 33.324 80.449-11.834 58.959-33.324 80.448-50.059 33.323-80.448 33.323c-30.389 0-58.96-11.834-80.448-33.323s-33.322-50.059-33.322-80.448 11.834-58.96 33.322-80.449z" />
<glyph unicode="&#xe601;" glyph-name="dAlogo" d="M43.391 268.957c-2.955 0-4.992-2.442-4.992-5.524v-21.194c-5.12 1.028-12.456 1.925-17.979 1.925-14.643 0-20.419-7.963-20.419-20.422v-25.56c0-12.589 5.846-19.139 18.18-19.139 8.219 0 15.507 2.826 20.648 6.935 0.384-4.751 1.948-6.935 5.032-6.935 2.954 0 4.778 2.436 4.778 5.522v78.868c0.001 3.081-2.162 5.524-5.246 5.524zM38.398 195.995c-5.12-4.111-11.962-7.449-18.124-7.449-7.581 0-10.034 3.214-10.034 9.636v25.56c0 7.581 3.354 10.918 10.546 10.918 4.369 0 10.787-0.769 17.613-1.929v-36.737zM158.507 244.163c-2.695 0.773-5.392-0.897-6.293-3.595l-16.44-48.039-16.441 48.039c-0.9 2.698-3.599 4.368-6.296 3.595-2.697-0.772-4.237-3.595-3.467-6.293l19.009-54.205c1.284-3.724 4.496-4.623 7.194-4.623s5.91 0.899 7.192 4.623l19.011 54.205c0.899 2.698-0.77 5.522-3.47 6.293zM445.080 199.295c6.295 2.568 8.868 7.75 8.868 15.582v10.278c0 11.689-5.143 18.484-20.3 18.484h-28.389c-2.955 0-5.922-3.198-5.922-6.152v-56.991h19.625v17.065h7.107l10.015-17.065h20.558l-11.563 18.799zM427.739 214.628h-8.775v11.946h8.775c5.651 0 7.45-1.542 7.45-5.781 0.001-4.367-1.414-6.165-7.45-6.165zM381.883 237.953c-0.772 2.823-2.442 5.686-5.394 5.686h-25.818l-16.829-63.143h19.27l2.055 9.386h19.652l1.926-9.386h19.267l-14.128 57.457zM359.535 206.949l4.878 19.077 1.027 4.815h0.26l1.027-4.815 4.241-19.077h-11.433zM342.579 242.88h-19.013v11.945c0 2.956-2.442 5.394-5.394 5.394s-5.396-2.439-5.396-5.394v-11.945h-8.478c-2.44 0-4.497-2.055-4.497-4.494 0-2.442 2.058-4.498 4.497-4.498h8.478v-49.452c0-2.959 2.442-5.394 5.396-5.394 2.952 0 5.394 2.436 5.394 5.394v49.452h16.057l2.957 8.991zM462.291 242.88c-2.955 0-5.394-2.439-5.394-5.393v-11.691h17.032v-45.471h19.268v45.471h16.367l2.436 17.084h-49.709zM173.921 244.163c-2.951 0-5.393-2.438-5.393-5.394v-54.332c0-2.959 2.442-5.394 5.393-5.394 2.957 0 5.396 2.436 5.396 5.394v54.332c0 2.957-2.44 5.394-5.396 5.394zM104.954 207.801v12.73c0 12.971-4.455 23.632-22.949 23.632-18.626 0-23.981-10.404-23.981-23.377v-18.755c0-14.132 6.186-22.99 24.684-22.99 7.192 0 13.301 1.026 19.084 2.952 2.311 0.772 3.695 3.212 3.313 5.654-0.388 2.313-2.584 3.599-5.026 3.083-5.907-1.414-11.346-2.442-16.743-2.442-12.204 0-15.072 3.985-15.072 13.871v5.642h36.692zM68.263 221.56c0 8.733 3.397 13.613 13.549 13.613 10.145 0 12.903-4.88 12.903-13.613v-4.372h-26.452v4.372zM209.145 244.163c-14.642 0-19.716-7.963-19.716-20.423v-25.56c0-12.589 5.99-19.139 18.322-19.139 8.219 0 15.583 2.826 20.72 6.935 0.384-4.751 1.417-6.935 4.5-6.935 2.955 0 4.241 2.436 4.241 5.522v56.261c-3.413 1.028-22.541 3.339-28.068 3.339zM226.974 195.995c-3.413-4.111-11.533-7.449-17.698-7.449-7.579 0-9.607 3.214-9.607 9.636v25.56c0 7.581 2.927 10.918 10.121 10.918 4.367 0 12.065-0.769 17.184-1.929v-36.737zM276.684 244.163c-5.524 0-23.636-2.311-28.647-3.339v-56.387c0-2.959 2.442-5.394 5.396-5.394s5.393 2.436 5.393 5.394v48.294c5.779 1.158 12.846 1.929 17.212 1.929 7.194 0 9.764-3.338 9.764-10.918v-39.304c0-2.959 2.44-5.394 5.396-5.394 2.952 0 5.392 2.436 5.392 5.394v39.304c0.001 12.459-5.264 20.423-19.906 20.423z" />
<glyph unicode="&#xe602;" glyph-name="storage" d="M183.956 224.548c0-41.919 33.984-75.897 75.898-75.897 41.917 0 75.901 33.978 75.901 75.897 0 34.63-23.202 63.818-54.899 72.931l-21.002 25.143-21.002-25.142c-31.695-9.115-54.895-38.301-54.895-72.933zM220.724 224.548c0 17.417 11.386 32.159 27.118 37.234l12.017 14.385 12.017-14.388c15.733-5.074 27.118-19.816 27.118-37.231 0-21.612-17.517-39.129-39.135-39.129-21.613 0-39.13 17.517-39.13 39.13zM15.123 382.745v-316.279c0-47.748 38.851-86.596 86.6-86.596h316.268c47.748 0 86.596 38.846 86.596 86.596v316.279c0 47.745-38.846 86.591-86.596 86.591h-316.268c-47.752 0-86.6-38.844-86.6-86.591zM55.679 333.969c0 6.691 4.071 12.431 9.875 14.877v33.898c0 19.937 16.226 36.159 36.172 36.159h316.268c19.942 0 36.166-16.221 36.166-36.159v-316.279c0-19.942-16.224-36.163-36.166-36.163h-316.272c-19.945 0-36.172 16.224-36.172 36.163v33.894c-5.803 2.442-9.875 8.182-9.875 14.877v52.44c0 6.691 4.071 12.431 9.875 14.877v84.094c-5.803 2.446-9.875 8.182-9.875 14.877v52.44zM87.969 382.745v-33.649c6.159-2.273 10.558-8.177 10.558-15.127v-52.44c0-6.95-4.4-12.854-10.558-15.127v-83.59c6.159-2.272 10.558-8.176 10.558-15.127v-52.44c0-6.95-4.4-12.854-10.558-15.127v-33.647c0-7.594 6.162-13.751 13.757-13.751h316.268c7.594 0 13.751 6.156 13.751 13.751v316.279c0 7.588-6.156 13.745-13.751 13.745h-316.268c-7.594 0-13.757-6.155-13.757-13.745zM160.019 224.548c0 55.144 44.701 99.839 99.836 99.839 55.137 0 99.836-44.695 99.836-99.839s-44.699-99.836-99.836-99.836c-55.135-0.002-99.835 44.692-99.835 99.835z" />
<glyph unicode="&#xe603;" glyph-name="star" d="M505.567 282.784c-1.517 4.665-5.549 8.068-10.408 8.775l-154.532 22.467-69.101 140.011c-2.171 4.404-6.653 7.189-11.56 7.189s-9.39-2.785-11.56-7.189l-69.108-140.011-154.525-22.467c-4.855-0.705-8.892-4.111-10.408-8.775-1.517-4.669-0.254-9.791 3.264-13.215l111.813-108.993-26.393-153.885c-0.828-4.835 1.161-9.724 5.13-12.608 2.246-1.633 4.908-2.462 7.579-2.462 2.052 0 4.112 0.488 5.998 1.479l138.204 72.66 138.218-72.66c1.889-0.993 3.943-1.479 5.998-1.479 2.672 0 5.334 0.83 7.579 2.462 3.973 2.883 5.962 7.776 5.13 12.613l-26.401 153.887 111.813 108.99c3.519 3.421 4.786 8.543 3.271 13.214z" />
<glyph unicode="&#xe604;" glyph-name="star-half" d="M502.736 282.737c-1.517 4.665-5.549 8.069-10.408 8.775l-154.532 22.467-69.101 140.011c-2.171 4.404-6.653 7.189-11.56 7.189v0c0 0 0 0 0 0-4.908 0-9.39-2.785-11.56-7.189l-69.108-140.011-154.525-22.467c-3.035-0.441-5.751-1.936-7.729-4.137-1.186-1.317-2.11-2.889-2.678-4.642-0.38-1.167-0.585-2.363-0.623-3.555s0.085-2.375 0.368-3.522c0.565-2.291 1.761-4.43 3.519-6.139l111.813-108.993-26.39-153.882c-0.724-4.233 0.706-8.503 3.737-11.439 0.433-0.418 0.897-0.811 1.397-1.171 1.684-1.224 3.602-1.996 5.582-2.308 0.659-0.103 1.328-0.156 1.996-0.156 2.052 0 4.112 0.488 5.998 1.479l138.204 72.66 138.218-72.66c1.889-0.993 3.943-1.479 5.998-1.479 2.672 0 5.334 0.83 7.579 2.462 3.973 2.883 5.962 7.776 5.13 12.613l-26.401 153.887 111.813 108.99c3.514 3.421 4.781 8.546 3.264 13.214zM358.861 190.079l-15.534-15.141 20.351-118.621-106.541 56.010v271.871l53.26-107.92 119.121-17.319-70.658-68.876z" />
<glyph unicode="&#xe605;" glyph-name="star-zero" d="M258.509 383.781l53.539-108.487 119.744-17.409-86.644-84.454 20.457-119.241-107.096 56.301-107.089-56.298 20.45 119.242-86.642 84.457 119.736 17.409 53.546 108.481zM258.509 461.169c-4.934 0-9.44-2.799-11.621-7.227l-69.469-140.741-155.331-22.586c-4.88-0.71-8.938-4.132-10.462-8.821-1.524-4.694-0.254-9.842 3.281-13.284l112.398-109.561-26.528-154.69c-0.832-4.86 1.165-9.774 5.156-12.675 2.257-1.642 4.933-2.476 7.618-2.476 2.063 0 4.133 0.49 6.029 1.488l138.926 73.038 138.938-73.038c1.894-0.998 3.966-1.488 6.029-1.488 2.685 0 5.361 0.834 7.618 2.476 3.993 2.897 5.994 7.815 5.156 12.678l-26.539 154.69 112.398 109.559c3.533 3.442 4.805 8.59 3.281 13.284-1.524 4.69-5.578 8.111-10.462 8.821l-155.339 22.586-69.461 140.741c-2.177 4.428-6.684 7.227-11.618 7.227v0z" />
<glyph unicode="&#xe606;" glyph-name="notallowed" d="M259.854 469.335c-134.576 0-243.666-109.094-243.666-243.666 0-134.576 109.094-243.668 243.666-243.668 134.576 0 243.668 109.094 243.668 243.668 0 134.571-109.094 243.666-243.668 243.666zM430.222 178.748h-340.731c-4.048 15.971-6.255 30.452-6.255 46.581 0 16.127 2.203 33.274 6.255 46.581h340.729c4.048-13.31 6.255-30.452 6.255-46.581s-2.202-30.61-6.253-46.581z" />
<glyph unicode="&#xe607;" glyph-name="comment" d="M460.78 457.261h-404.334c-20.508 0-37.133-16.626-37.133-37.133v-297.060c0-20.508 16.625-37.133 37.133-37.133h234.535l0.005-97.69c-0.007-7.761 1.934-12.509 5.7-14.214 3.82-1.707 8.507 0.214 14.133 5.84l106.057 106.063h43.899c20.508 0 37.133 16.625 37.133 37.133v297.060c0.002 20.508-16.625 37.133-37.133 37.133z" />
<glyph unicode="&#xe608;" glyph-name="faves" d="M494.405 278.726c-1.468 4.515-5.37 7.808-10.071 8.493l-149.548 21.742-66.871 135.495c-2.101 4.262-6.438 6.957-11.188 6.957s-9.085-2.695-11.188-6.957l-66.879-135.495-149.54-21.742c-4.7-0.683-8.605-3.978-10.071-8.493-1.468-4.519-0.244-9.475 3.158-12.789l108.206-105.477-25.538-148.923c-0.8-4.68 1.123-9.411 4.963-12.204 2.174-1.58 4.749-2.383 7.334-2.383 1.986 0 3.98 0.473 5.805 1.432l133.745 70.315 133.759-70.315c1.827-0.961 3.818-1.432 5.805-1.432 2.586 0 5.159 0.803 7.334 2.383 3.841 2.791 5.769 7.524 4.964 12.206l-25.55 148.923 108.206 105.476c3.406 3.315 4.629 8.272 3.161 12.789z" />
<glyph unicode="&#xe609;" glyph-name="core-bkgrd" d="M255.994 479.997c-141.38 0-255.994-114.611-255.994-256 0-141.386 114.615-255.993 255.994-255.993 141.391 0 256.006 114.608 256.006 255.993 0 141.389-114.615 256-256.006 256z" />
<glyph unicode="&#xe60a;" glyph-name="core-bkgrd-lrg" horiz-adv-x="896" d="M16.561 381.411c-5.54 0-10.027-4.498-10.027-10.048v-279.639c0-5.548 4.487-9.728 10.027-9.728h763.231l21.852 14.243 83.247 154.791v130.738l-868.331-0.363z" />
</font>
</defs>
</svg>
