<?xml version="1.0" standalone="no"?>
<!DOCTYPE svg PUBLIC "-//W3C//DTD SVG 1.1//EN" "http://www.w3.org/Graphics/SVG/1.1/DTD/svg11.dtd" >
<svg xmlns="http://www.w3.org/2000/svg">
<metadata>Generated by IcoMoon</metadata>
<defs>
<font id="da-icons" horiz-adv-x="512">
<font-face units-per-em="512" ascent="480" descent="-32" />
<missing-glyph horiz-adv-x="512" />
<glyph unicode="&#x20;" d="" horiz-adv-x="256" />
<glyph unicode="&#xe600;" d="M419.3 262.875c-1.003 3.087-3.673 5.34-6.888 5.808l-102.275 14.87-45.733 92.665c-1.437 2.915-4.403 4.758-7.651 4.758v0c0 0 0 0 0 0-3.248 0-6.214-1.843-7.651-4.758l-45.738-92.665-102.27-14.87c-2.008-0.292-3.806-1.281-5.115-2.738-0.785-0.872-1.396-1.913-1.773-3.072-0.251-0.773-0.388-1.564-0.413-2.352s0.056-1.572 0.244-2.332c0.374-1.517 1.165-2.932 2.329-4.063l74.003-72.135-17.466-101.846c-0.48-2.8 0.468-5.628 2.473-7.571 0.286-0.276 0.594-0.536 0.923-0.775 1.114-0.81 2.384-1.321 3.695-1.527 0.437-0.068 0.879-0.103 1.321-0.103 1.358 0 2.722 0.322 3.97 0.979l91.469 48.089 91.478-48.089c1.25-0.657 2.611-0.979 3.969-0.979 1.768 0 3.529 0.55 5.016 1.63 2.628 1.908 3.946 5.146 3.394 8.348l-17.473 101.849 74.003 72.134c2.326 2.264 3.164 5.656 2.161 8.745zM324.077 201.549l-10.281-10.022 2.427-14.15 11.042-64.358-70.512 37.069v179.934l35.25-71.426 78.839-11.462-46.764-45.585z" />
<glyph unicode="&#xe601;" d="M257.652 329.201l35.251-71.428 78.839-11.462-57.047-55.605 2.427-14.15 11.042-64.358-70.512 37.069-70.507-37.067 13.464 78.509-57.046 55.606 78.834 11.462 35.255 71.424zM257.652 380.153c-3.248 0-6.214-1.843-7.651-4.758l-45.738-92.665-102.27-14.87c-3.213-0.467-5.885-2.721-6.888-5.808-1.004-3.091-0.168-6.48 2.16-8.746l74.003-72.136-17.466-101.849c-0.548-3.2 0.768-6.436 3.394-8.346 1.487-1.080 3.248-1.63 5.016-1.63 1.358 0 2.722 0.322 3.97 0.979l91.469 48.089 91.478-48.089c1.248-0.657 2.611-0.979 3.969-0.979 1.768 0 3.529 0.55 5.016 1.63 2.628 1.908 3.946 5.146 3.394 8.348l-17.473 101.849 74.003 72.134c2.326 2.267 3.164 5.656 2.161 8.746-1.003 3.088-3.673 5.34-6.888 5.808l-102.276 14.87-45.733 92.665c-1.433 2.915-4.4 4.758-7.649 4.758v0z" />
<glyph unicode="&#xe602;" d="M421.007 262.905c-1.003 3.088-3.673 5.34-6.888 5.808l-102.275 14.87-45.733 92.665c-1.437 2.915-4.403 4.758-7.651 4.758s-6.214-1.843-7.651-4.758l-45.738-92.665-102.27-14.87c-3.213-0.467-5.885-2.72-6.888-5.808-1.004-3.091-0.168-6.48 2.16-8.746l74.003-72.135-17.468-101.847c-0.548-3.2 0.768-6.436 3.394-8.346 1.487-1.080 3.248-1.63 5.016-1.63 1.358 0 2.722 0.322 3.97 0.979l91.469 48.089 91.478-48.089c1.25-0.657 2.611-0.979 3.969-0.979 1.768 0 3.529 0.55 5.016 1.63 2.628 1.908 3.946 5.146 3.394 8.348l-17.473 101.849 74.003 72.134c2.329 2.264 3.168 5.654 2.164 8.745z" />
<glyph unicode="&#xe603;" d="M233.721 167.425l-0.13-15.904-41.184-41.204-8.335-0.012-40.87 40.89 0.013 8.348 40.856 40.877 159.295 2.243 65.695 65.741-0.326 42.331-65.38 65.413-42.454 0.15-65.387-65.415-0.381-33.060 41.863 0.693 0.185 15.050 40.863 40.877 8.33 0.013 40.87-40.89-0.014-8.332-41.183-41.204-159.274-1.93-65.376-65.399 0.157-42.806 65.219-65.251 42.629-0.014 65.544 65.577 0.313 33.616-41.537-0.394z" />
<glyph unicode="&#xe604;" d="M232.923 334.034h44.611v-152.288h-44.611v152.288zM230.709 334.034h-36.56c-5.758 0-9.151 1.413-10.235 4.253-1.052 2.804 0.384 6.228 4.364 10.206l57.315 57.317c2.72 2.721 5.889 3.999 9.494 3.954 3.956 0.002 7.195-1.26 9.692-3.753l57.542-57.542c3.888-3.889 5.303-7.243 4.178-10.029-1.077-2.786-4.43-4.248-10.030-4.405h-85.76zM379.243 307.608h-74.801v-44.599h40.579c2.238 0 4.058-1.811 4.058-4.036v-139.237c0-2.227-1.821-4.036-4.058-4.036h-179.597c-2.238 0-4.048 1.811-4.048 4.036v139.236c0 2.227 1.811 4.037 4.048 4.037h40.591v44.598h-74.803c-8.927 0-16.168-7.238-16.168-16.178v-204.173c0-8.926 7.24-16.168 16.168-16.168h248.032c8.928 0 16.169 7.24 16.169 16.168v204.173c0 8.94-7.241 16.178-16.169 16.178z" />
<glyph unicode="&#xe619;" d="M370.882 236.404c0 7.315-5.986 13.302-13.302 13.302h-62.878c-7.315 0-13.302 5.986-13.302 13.302v62.873c0 7.315-5.986 13.3-13.302 13.3h-21.815c-7.315 0-13.302-5.986-13.302-13.3v-62.877c0-7.315-5.986-13.302-13.3-13.302h-62.872c-7.315 0-13.3-5.986-13.3-13.302v-21.814c0-7.315 5.986-13.302 13.3-13.302h62.877c7.315 0 13.3-5.986 13.3-13.302v-62.877c0-7.315 5.986-13.302 13.302-13.302h21.814c7.315 0 13.302 5.986 13.302 13.302v62.877c0 7.315 5.986 13.302 13.302 13.302h62.879c7.315 0 13.302 5.986 13.302 13.302v21.818z" />
<glyph unicode="&#xe61a;" d="M356.332 267.88l-16.404 16.404c-2.741 2.741-7.228 2.741-9.969 0l-71.941-71.941-71.941 71.941c-2.741 2.741-7.227 2.741-9.969 0l-16.405-16.405c-2.741-2.741-2.741-7.228 0-9.969l75.466-75.466c0.321-0.61 0.703-1.193 1.215-1.705l16.405-16.404c1.432-1.432 3.341-2.098 5.229-2.033 1.887-0.065 3.798 0.599 5.229 2.033l16.404 16.404c0.51 0.51 0.894 1.096 1.215 1.705l75.466 75.466c2.741 2.741 2.741 7.227 0 9.969z" />
<glyph unicode="&#xe61b;" d="M317.704 230.417l-16.404 16.405c-0.51 0.511-1.096 0.894-1.705 1.215l-75.466 75.465c-2.741 2.741-7.227 2.741-9.969 0l-16.404-16.404c-2.741-2.741-2.741-7.228 0-9.969l71.941-71.941-71.941-71.941c-2.741-2.741-2.741-7.228 0-9.969l16.405-16.404c2.741-2.741 7.227-2.741 9.969 0l75.466 75.466c0.61 0.321 1.193 0.703 1.705 1.215l16.404 16.404c1.432 1.432 2.098 3.341 2.033 5.229 0.065 1.887-0.601 3.798-2.033 5.229z" />
<glyph unicode="&#xe61c;" d="M365.051 135.917c-58.433 0-116.26 0-174.085 0 15.104-2.546 23.016-14.824 22.356-26.489-0.893-15.781-13.127-24.712-25.665-24.472-14.066 0.272-24.738 10.491-25.161 25.008-0.37 12.677 8.709 23.824 22.347 26.132-2.879 0-5.76 0.057-8.637-0.010-9.048-0.214-16.767 8.428-12.556 17.896 2.937 6.603 6.448 12.952 9.459 19.524 0.767 1.671 1.164 3.885 0.788 5.647-11.285 53.198-22.685 106.373-34.081 159.548-0.174 0.81-0.517 1.584-0.837 2.539-13.1 0-26.126-0.176-39.142 0.128-3.118 0.073-6.627 1.092-9.204 2.808-4.789 3.184-6.144 8.647-4.434 13.873 1.546 4.726 6.434 8.593 11.954 8.642 17.091 0.157 34.186 0.191 51.277-0.017 6-0.073 10.378-3.291 12.091-9.194 1.506-5.19 2.536-10.518 3.911-16.356 0.98 0 2.323 0 3.664 0 78.092 0 156.185-0.004 234.278 0.007 3.808 0 7.402-0.492 10.472-3.082 3.35-2.826 4.793-6.465 4.796-10.714 0.021-33.544 0.043-67.089-0.012-100.633-0.012-7.989-5.028-12.912-13.007-13.754-11.962-1.263-23.888-2.858-35.837-4.255-11.844-1.384-23.7-2.668-35.545-4.046s-23.678-2.838-35.519-4.236c-9.832-1.161-19.671-2.274-29.507-3.425-12.16-1.425-24.316-2.882-36.478-4.298-9.94-1.157-19.888-2.263-29.829-3.415-1.56-0.181-3.105-0.486-5.22-0.822 3.299-9.223 4.108-18.108-2.386-26.827 2.22 0 3.468 0 4.715 0 59.397 0 118.796 0.002 178.193-0.003 7.241 0 12.565-3.486 14.135-9.202 2.296-8.353-3.608-15.991-12.66-16.3-3.086-0.106-6.176-0.017-9.313-0.246 6.591-1.021 11.978-3.998 16.358-9.002 4.461-5.094 6.474-11.075 6.065-17.64-0.959-15.454-13.002-24.264-25.523-24.32-12.107-0.057-23.19 9.8-24.895 20.805-2.268 14.659 7.031 27.713 22.673 30.204z" />
<glyph unicode="&#xe61d;" d="M345.94 152.82c5.173 5.173 5.173 13.638 0 18.811l-44.462 44.462c-5.173 5.173-5.173 13.638 0 18.811l44.461 44.46c5.173 5.173 5.173 13.638 0 18.811l-15.425 15.425c-5.173 5.173-13.638 5.173-18.811 0l-44.461-44.461c-5.173-5.173-13.638-5.173-18.811 0l-44.46 44.461c-5.173 5.173-13.638 5.173-18.811 0l-15.425-15.425c-5.173-5.173-5.173-13.638 0-18.811l44.46-44.46c5.173-5.173 5.173-13.638 0-18.811l-44.46-44.461c-5.173-5.173-5.173-13.638 0-18.811l15.425-15.425c5.173-5.173 13.638-5.173 18.811 0l44.46 44.461c5.173 5.173 13.638 5.173 18.811 0l44.462-44.462c5.173-5.173 13.638-5.173 18.811 0l15.425 15.425z" />
<glyph unicode="&#xe61e;" d="M391.531 378.382h-267.603c-13.573 0-24.576-11.003-24.576-24.576v-196.607c0-13.573 11.003-24.576 24.576-24.576h155.225l0.005-64.656c-0.007-5.137 1.28-8.279 3.774-9.407 2.529-1.13 5.63 0.142 9.354 3.865l70.192 70.197h29.055c13.573 0 24.576 11.003 24.576 24.576v196.606c0.002 13.573-11.003 24.576-24.576 24.576z" />
<glyph unicode="&#xe61f;" d="M408.854 259.088c-0.941 2.894-3.443 5.007-6.457 5.445l-95.883 13.941-42.875 86.873c-1.347 2.733-4.128 4.461-7.173 4.461s-5.826-1.728-7.173-4.461l-42.88-86.873-95.879-13.941c-3.013-0.439-5.517-2.551-6.457-5.445-0.941-2.897-0.157-6.075 2.025-8.2l69.378-67.627-16.375-95.483c-0.513-3 0.72-6.034 3.183-7.824 1.393-1.013 3.045-1.528 4.702-1.528 1.274 0 2.552 0.303 3.721 0.918l85.752 45.083 85.76-45.083c1.171-0.616 2.448-0.918 3.721-0.918 1.658 0 3.309 0.515 4.702 1.528 2.464 1.789 3.699 4.824 3.183 7.825l-16.381 95.483 69.377 67.625c2.184 2.125 2.968 5.304 2.027 8.2z" />
<glyph unicode="&#xe620;" d="M314.617 94.447c-0.526 0-1.048 0.002-1.574 0.002-9.054 0.002-22.584 0.003 1.574-0.002zM456.187 116.918c-1.811 14.623-8.506 26.437-22.284 32.728-16.010 7.322-32.3 14.041-48.577 20.752-34.403 14.192-47.49 18.309-26.411 65.492 10.639 23.818 13.967 48.606 10.933 74.172-3.58 30.151-23.907 46.691-55.502 46.321-31.307-0.359-51.166-17.683-53.934-48.205-2.243-24.738 0.42-48.731 10.791-71.966 12.147-27.224 13.679-41.042 0.455-52.036v0c-2.317-1.93-5.098-3.772-8.348-5.582-0.113-0.063-0.224-0.125-0.338-0.188-1.046-0.577-2.135-1.152-3.279-1.724-0.019-0.012-0.036-0.019-0.055-0.029-1.205-0.603-2.462-1.203-3.775-1.805-0.061-0.029-0.125-0.057-0.185-0.084-1.155-0.527-2.363-1.058-3.605-1.587-0.341-0.147-0.69-0.293-1.037-0.44-1.028-0.432-2.085-0.865-3.171-1.302-0.382-0.154-0.758-0.309-1.149-0.464-1.432-0.568-2.899-1.14-4.43-1.719-15.163-5.369-30.017-11.529-44.559-18.466-0.79-0.411-1.57-0.838-2.34-1.276-0.234-0.132-0.459-0.273-0.69-0.408-0.536-0.314-1.069-0.632-1.593-0.959-0.256-0.162-0.505-0.329-0.758-0.495-0.49-0.319-0.975-0.642-1.451-0.973-0.251-0.178-0.496-0.356-0.743-0.538-0.47-0.339-0.932-0.685-1.386-1.038-0.232-0.181-0.461-0.363-0.688-0.55-0.461-0.372-0.911-0.752-1.353-1.142-0.203-0.178-0.406-0.358-0.604-0.539-0.463-0.42-0.91-0.85-1.349-1.292-0.164-0.162-0.329-0.322-0.49-0.488-0.482-0.498-0.944-1.009-1.396-1.529-0.104-0.12-0.214-0.236-0.315-0.356-4.186-4.951-7.012-10.954-7.672-18.267-2.203-24.472 2.173-26.995 22.203-26.661 38.637 0.633 77.29 0.203 115.932 0.181 4.844 0 8.407-0.002 4.229-0.002 19.857 0 39.707-0.010 59.561 0 19.966 0 39.943-0.261 59.904 0.091 17.822 0.319 21.616 4.834 19.452 22.376zM190.126 166.060l0.255 0.123c14.976 7.144 30.463 13.565 46.030 19.087 6.739 2.558 12.228 4.929 16.492 7.106-6.694 2.832-13.415 5.604-20.133 8.375-28.788 11.877-39.739 15.32-22.1 54.804 8.905 19.931 11.688 40.672 9.149 62.066-2.995 25.23-20.006 39.072-46.444 38.762-26.199-0.302-42.815-14.797-45.133-40.337-1.877-20.7 0.351-40.779 9.029-60.223 15.005-33.63 10.694-42.82-24.194-56.036-12.689-4.493-25.118-9.648-37.287-15.452-9.983-5.173-18.017-12.978-19.097-24.981-1.845-20.478 1.818-22.587 18.579-22.312 28.754 0.471 57.517 0.248 86.274 0.179 4.149 9.916 12.424 20.464 28.333 28.708l0.249 0.13z" />
<glyph unicode="&#xe621;" d="M257.398 352.957c-70.796 0-128.185-57.389-128.185-128.185s57.388-128.186 128.185-128.186c70.796 0 128.186 57.39 128.186 128.186s-57.39 128.184-128.186 128.184zM238.174 133.651c-7.946 0-13.972 5.482-8.218 29.589l14.244 61.365c1.369 6.849 1.643 9.587 0 9.587-2.466 0-10.137-4.656-16.71-9.587l-3.835 7.672c19.724 18.352 39.996 29.039 49.857 29.039 7.946 0 9.315-10.687 5.48-27.123l-15.615-63.555c-1.918-7.948-1.098-10.687 0.822-10.687 2.462 0 9.587 3.839 17.532 10.959l4.658-7.122c-19.452-21.366-39.999-30.137-48.216-30.137zM269.13 278.023c-9.587 0-15.066 6.304-15.341 16.984 0 8.766 7.123 20.546 20.822 20.546 10.409 0 15.341-7.671 15.341-16.164 0-10.959-8.767-21.368-20.822-21.368z" />
<glyph unicode="&#xe622;" d="M363.056 272.393c-0.432-14.353-3.43-27.826-9.637-40.86-23.351-49.029-46.319-98.243-69.445-147.379-7.388-15.7-26.144-20.618-39.335-9.977-3.179 2.565-5.784 6.335-7.56 10.071-20.825 43.757-41.453 87.608-62.099 131.451-4.095 8.694-9.101 17.135-11.862 26.247-10.063 33.212-5.49 64.461 15.575 92.426 15.252 20.248 35.221 33.884 60.411 38.924 65.652 13.135 113.096-33.986 121.493-79.657 1.284-6.998 1.661-14.16 2.459-21.247zM311.332 272.797c0.050 28.486-22.478 51.304-50.721 51.376-28.351 0.072-51.052-22.538-51.147-50.944-0.097-28.667 22.442-51.495 50.864-51.519 28.32-0.022 50.954 22.649 51.004 51.088z" />
<glyph unicode="&#xe623;" d="M293.603 220.253c-8.568-7.109-23.425-12.469-34.56-12.469h-4.542c-11.112 0-25.975 5.312-34.568 12.358l-102.661 84.152v-162.835c0-14.137 10.555-25.6 23.575-25.6h230.25c13.019 0 23.575 11.462 23.575 25.6v162.647l-101.067-83.853zM233.68 236.913c4.667-3.826 14.784-7.441 20.819-7.441h4.542c6.016 0 16.082 3.632 20.711 7.472l108.059 89.656c-4.271 4.666-10.183 7.557-16.719 7.557h-230.25c-6.504 0-12.393-2.863-16.659-7.488l109.496-89.755z" />
<glyph unicode="&#xe625;" d="M183.246 224.956c0-22.053-17.877-39.931-39.931-39.931s-39.931 17.877-39.931 39.931c0 22.053 17.877 39.931 39.931 39.931s39.931-17.877 39.931-39.931zM295.207 224.956c0-22.053-17.877-39.931-39.931-39.931s-39.931 17.877-39.931 39.931c0 22.053 17.877 39.931 39.931 39.931s39.931-17.877 39.931-39.931zM407.17 224.956c0-22.053-17.877-39.931-39.931-39.931s-39.931 17.877-39.931 39.931c0 22.053 17.877 39.931 39.931 39.931s39.931-17.877 39.931-39.931z" />
<glyph unicode="&#xe626;" d="M258.471 381.298c-86.284 0-156.228-69.946-156.228-156.228 0-86.284 69.946-156.23 156.228-156.23 86.284 0 156.23 69.946 156.23 156.23 0 86.28-69.946 156.228-156.23 156.228zM367.703 194.986h-218.462c-2.596 10.24-4.011 19.524-4.011 29.867 0 10.34 1.413 21.333 4.011 29.867h218.46c2.596-8.534 4.010-19.524 4.010-29.867s-1.413-19.626-4.009-29.867z" />
<glyph unicode="&#xe627;" d="M309.558 326.839c0.447 0.447 0.837 0.93 1.186 1.432 0.019 0.026 0.036 0.048 0.053 0.072 0.351 0.51 0.649 1.044 0.901 1.596 0.002 0.001 0.002 0.005 0.003 0.007 1.813 3.965 1.106 8.824-2.147 12.075l-19.21 19.213c-4.175 4.175-11.007 4.175-15.183 0l-8.726-8.726 34.394-34.396 8.728 8.728zM177.494 260.565v-26.879c0-1.166 0.732-2.282 1.657-3.207 0.831-0.85 2.142-1.358 3.411-1.358h26.774l0.001 0.066c0.114 0 0.255 0.075 0.384 0.095 0.128 0.022 0.248 0.037 0.387 0.078 0.078 0.024 0.169 0.075 0.249 0.101 0.208 0.071 0.415 0.145 0.637 0.246 0.046 0.022 0.095 0.054 0.143 0.075 1.813 0.863 3.92 2.547 4.552 3.178l75.479 75.484-34.396 34.394-75.747-75.484c-1.135-1.133-3.533-5.405-3.533-6.791zM373.019 329.813h-45.375c-0.884-5.12-3.282-9.957-7.223-13.902l-93.872-93.911c-1.372-1.37-8.643-8.24-17.212-8.24h-26.776c-5.345 0-10.605 2.14-14.326 5.912-3.762 3.789-6.101 8.804-6.101 14.013v26.879c0 6.99 5.323 14.879 8.028 17.584l51.993 51.666h-79.88c-13.573 0-24.517-10.871-24.517-24.445v-196.607c0-13.573 10.943-24.709 24.517-24.709h230.743c13.573 0 24.634 11.136 24.634 24.709v196.606c0 13.573-11.061 24.445-24.634 24.445z" />
<glyph unicode="&#xe628;" d="M250.831 176.916h-59.694c-2.526 0-4.569 2.043-4.569 4.557v64.702h37.917c6.323 0.178 10.107 1.828 11.323 4.973 1.27 3.145-0.327 6.931-4.715 11.322l-64.959 64.961c-2.817 2.816-6.474 4.24-10.941 4.238-4.067 0.051-7.646-1.392-10.716-4.463l-64.701-64.705c-4.493-4.49-6.112-8.357-4.927-11.522 1.224-3.205 5.053-4.801 11.554-4.801h47.865v-101.369c0-10.076 8.172-18.25 18.251-18.25h148.673l-50.361 50.357zM265.474 275.529h59.694c2.526 0 4.568-2.043 4.568-4.557v-64.702h-37.917c-6.323-0.178-10.107-1.828-11.324-4.973-1.27-3.146 0.327-6.931 4.716-11.322l64.959-64.959c2.817-2.816 6.474-4.24 10.942-4.238 4.067-0.051 7.646 1.392 10.716 4.463l64.702 64.705c4.493 4.49 6.111 8.358 4.927 11.522-1.224 3.205-5.053 4.801-11.554 4.801h-47.865v101.369c0 10.076-8.171 18.25-18.251 18.25h-148.673l50.361-50.359z" />
<glyph unicode="&#xe629;" d="M321.515 193.594c-2.741 2.741-3.675 7.873-2.074 11.404 0 0 13.237 29.185 13.237 49.862 0 58.661-47.557 106.216-106.221 106.216s-106.216-47.555-106.216-106.216c0-58.665 47.553-106.22 106.216-106.22 20.677 0 49.857 13.235 49.857 13.235 3.531 1.601 8.663 0.669 11.404-2.074l66.425-66.425c2.741-2.741 7.228-2.741 9.969 0l23.824 23.827c2.741 2.741 2.741 7.228 0 9.969l-66.42 66.422zM226.459 190.104c-35.762 0-64.752 28.991-64.752 64.758 0 35.763 28.991 64.755 64.752 64.755 35.765 0 64.756-28.991 64.756-64.755 0-35.767-28.993-64.758-64.756-64.758z" />
<glyph unicode="&#xe62a;" d="M412.955 200.571v49.053l-51.127 5.736c-2.255 7.791-5.34 15.224-9.182 22.187l32.091 40.2-34.687 34.685-40.199-32.091c-6.963 3.841-14.396 6.925-22.185 9.178l-5.738 51.129h-49.053l-5.738-51.129c-7.789-2.253-15.222-5.337-22.185-9.178l-40.199 32.091-34.685-34.685 32.089-40.2c-3.841-6.963-6.925-14.396-9.178-22.185l-51.129-5.738-0.001-24.526 0.001-24.526 51.129-5.738c2.253-7.786 5.337-15.222 9.178-22.181l-32.089-40.206 34.685-34.681 40.204 32.091c6.96-3.845 14.394-6.929 22.181-9.182l5.738-51.127h49.053l5.738 51.127c7.789 2.253 15.222 5.34 22.185 9.182l40.199-32.091 34.687 34.681-32.091 40.206c3.841 6.96 6.924 14.396 9.178 22.182l51.128 5.738zM257.406 169.918c-30.472 0-55.181 24.706-55.181 55.18s24.709 55.18 55.181 55.18c30.478 0 55.178-24.704 55.178-55.18 0-30.474-24.7-55.18-55.178-55.18z" />
<glyph unicode="&#xe62b;" d="M340.074 319.21h-164.327c-9.666 0-17.502-7.836-17.502-17.504v-152.267c0-9.666 7.835-17.503 17.502-17.503h164.327c9.666 0 17.503 7.837 17.503 17.503v152.267c-0.002 9.666-7.837 17.504-17.503 17.504zM270.162 196.796l-49.841-28.776v115.108l99.685-57.552-49.843-28.78z" />
<glyph unicode="&#xe62c;" d="M412.2 235.249l-132.4 132.401c-5.743 5.741-13.194 8.641-22.301 8.638-8.287 0.104-15.584-2.838-21.842-9.098l-131.877-131.882c-9.156-9.153-12.459-17.034-10.038-23.486 2.492-6.528 10.296-9.784 23.547-9.784h84.124l-0.26-112.536c0.214-4.238 1.811-7.914 4.964-11.067 3.161-3.154 6.893-4.808 11.276-5.18l80.717 0.527c4.654 0 8.687 1.546 11.896 4.753 3.207 3.21 4.606 7.093 4.299 11.442l0.198 112.062h84.231c12.885 0.365 20.596 3.726 23.079 10.134 2.589 6.413-0.666 14.131-9.612 23.077z" />
<glyph unicode="&#xe62d;" d="M356.883 203.515c0-3.971-3.207-7.192-7.161-7.192h-184.586c-3.954 0-7.161 3.221-7.161 7.192v98.985c0 3.971 3.207 7.192 7.161 7.192h184.586c3.954 0 7.161-3.221 7.161-7.192v-98.985zM200.55 146.464c0-3.971-3.207-7.192-7.161-7.192h-28.254c-3.954 0-7.161 3.221-7.161 7.192v27.767c0 3.971 3.207 7.192 7.161 7.192h28.254c3.954 0 7.161-3.221 7.161-7.192v-27.767zM271.615 169.646c0-1.338-1.080-2.423-2.413-2.423h-51.935c-1.333 0-2.413 1.086-2.413 2.423v9.354c0 1.338 1.081 2.423 2.413 2.423h51.935c1.333 0 2.413-1.086 2.413-2.423v-9.354zM300.139 141.695c0-1.338-1.080-2.423-2.413-2.423h-80.461c-1.333 0-2.413 1.086-2.413 2.423v9.354c0 1.338 1.081 2.423 2.413 2.423h80.461c1.333 0 2.413-1.086 2.413-2.423v-9.354zM356.999 141.695c0-1.338-1.080-2.423-2.413-2.423h-37.907c-1.333 0-2.413 1.086-2.413 2.423v9.354c0 1.338 1.080 2.423 2.413 2.423h37.907c1.333 0 2.413-1.086 2.413-2.423v-9.354zM356.999 169.646c0-1.338-1.080-2.423-2.413-2.423h-66.239c-1.333 0-2.413 1.086-2.413 2.423v9.354c0 1.338 1.080 2.423 2.413 2.423h66.239c1.333 0 2.413-1.086 2.413-2.423v-9.354z" />
<glyph unicode="&#xe62e;" d="M215.375 246.832c0-3.971-3.207-7.192-7.161-7.192h-42.612c-3.954 0-7.161 3.22-7.161 7.192v56.653c0 3.971 3.207 7.192 7.161 7.192h42.612c3.954 0 7.161-3.221 7.161-7.192v-56.653zM356.787 246.832c0-3.971-3.207-7.192-7.161-7.192h-97.748c-3.954 0-7.161 3.22-7.161 7.192v56.653c0 3.971 3.207 7.192 7.161 7.192h97.748c3.954 0 7.161-3.221 7.161-7.192v-56.653zM264.383 147.579c0-3.971-3.207-7.192-7.161-7.192h-91.62c-3.954 0-7.161 3.221-7.161 7.192v56.653c0 3.971 3.207 7.192 7.161 7.192h91.62c3.954 0 7.161-3.221 7.161-7.192v-56.653zM356.787 147.579c0-3.971-3.207-7.192-7.161-7.192h-48.738c-3.954 0-7.161 3.221-7.161 7.192v56.653c0 3.971 3.207 7.192 7.161 7.192h48.738c3.954 0 7.161-3.221 7.161-7.192v-56.653z" />
<glyph unicode="&#xe62f;" d="M243.026 245.591c0-3.971-3.207-7.192-7.161-7.192h-70.178c-3.954 0-7.161 3.22-7.161 7.192v56.653c0 3.971 3.207 7.192 7.161 7.192h70.178c3.954 0 7.161-3.221 7.161-7.192v-56.653zM356.871 245.591c0-3.971-3.207-7.192-7.161-7.192h-70.178c-3.954 0-7.161 3.22-7.161 7.192v56.653c0 3.971 3.207 7.192 7.161 7.192h70.178c3.954 0 7.161-3.221 7.161-7.192v-56.653zM243.026 146.34c0-3.971-3.207-7.192-7.161-7.192h-70.178c-3.954 0-7.161 3.221-7.161 7.192v56.653c0 3.971 3.207 7.192 7.161 7.192h70.178c3.954 0 7.161-3.221 7.161-7.192v-56.653zM356.871 146.34c0-3.971-3.207-7.192-7.161-7.192h-70.178c-3.954 0-7.161 3.221-7.161 7.192v56.653c0 3.971 3.207 7.192 7.161 7.192h70.178c3.954 0 7.161-3.221 7.161-7.192v-56.653z" />
<glyph unicode="&#xe630;" d="M255.5 67.185c-47.016 0.010-94.044 0.553-141.051-0.216-24.043-0.399-29.297 2.627-26.651 32.003 1.549 17.217 13.076 28.411 27.394 35.832 17.459 8.329 35.287 15.722 53.491 22.166 50.044 18.959 56.23 32.144 34.705 80.382-12.445 27.894-15.645 56.696-12.952 86.39 3.325 36.637 27.161 57.431 64.743 57.863 37.924 0.444 62.326-19.408 66.623-55.601 3.64-30.69-0.351-60.444-13.125-89.035-25.303-56.636-9.593-61.578 31.702-78.614 19.538-8.057 39.093-16.121 58.312-24.909 16.538-7.553 24.572-21.735 26.747-39.288 2.596-21.058-1.957-26.476-23.346-26.866-23.962-0.421-47.94-0.108-71.907-0.108-24.901-0.010-49.787 0.002-74.683 0.002-47.016 0.010 24.897 0 0 0z" />
<glyph unicode="&#xe631;" d="M255.865 346.273c-124.375 0-167.914-120.899-167.914-120.899s45.901-120.899 167.914-120.899c117.277 0 167.914 120.899 167.914 120.899s-50.639 120.899-167.914 120.899zM255.865 171.643c-29.674 0-53.733 24.059-53.733 53.733s24.059 53.733 53.733 53.733c29.674 0 53.733-24.059 53.733-53.733-0.002-29.674-24.059-53.733-53.733-53.733z" />
</font>
</defs>
</svg>
